Ceci & Tati

Майтапи

Поръчано от http://portokal.bg

by on май.05, 2011, under Майтапи, Разни


От доста време се каня да си ги поръчам, но все не ми стигаше кураж :).

въведете коментар прочетете повече...

Freeko & Gallery – Sharcom.org

by on дек.31, 2010, under Майтапи, Мрежата, Разни

Днес бяха закрити потдомейните  freeko  и gallery към домейна sharcom.org.

За gallery.sharcom.org не мога да кажа нищо Cool, но за freeko.sharcom.org мога да кажа само едно, ще ми липсва и то много.

Freeko беше създаден  през 2005 год. Знам едно, че една вечер се чудех и то много, как да кръстя портала. Много мислих но нищо не ми идваше на ум, затова реших, името да се състой от две неща свобода и Никола. За хората които не знаят кои е Никола, това е собственика на фирма Шарком.

Free + Kolio = FreeKo

Обещавам  след време да допиша започнатото, защо определено има какво да напиша и ще ми е доста приятно.

въведете коментар прочетете повече...

40 години град Козлодуй със специалното участие на Райна и Константин – HD

by on окт.13, 2009, under Майтапи, Разни, Спорт

Get the Flash Player to see this content.

Get the Flash Player to see this content.

Get the Flash Player to see this content.

(continue reading…)

въведете коментар прочетете повече...

Трифон зарезан 2009, вилата на АЕР гр.Козлодуй – HD

by on окт.13, 2009, under Майтапи, Разни, Спорт

Да покажем малко циганийка сега :).

Get the Flash Player to see this content.

Stream #0.0: Video: flv, yuv420p, 1280×720 [PAR 1:1 DAR 16:9], q=2-31, 2800 kb/s, 90k tbn, 30 tbc
Stream #0.1: Audio: libmp3lame, 22050 Hz, stereo, s16, 0 kb/s

въведете коментар прочетете повече...

Малко клипчета от YouTube за лека нощ!

by on ное.13, 2007, under Майтапи

Bai 6ile – Slavi Show – 08.06.07

YouTube Preview Image

slavi na velik den

YouTube Preview Image

Slavi & Nevena Coneva – zhestoka

YouTube Preview Image
въведете коментар прочетете повече...

Нещто не намирате ли?

Потърси в блога ми:

Моля Ви не прекалявайте с информацията!