Ceci & Tati

Archive for юли, 2009

Конветиране на клипове за Nokia 5800 XpressMusic

by on юли.19, 2009, under Линукс, Разни

Първо да кажа за телефона, преди няколко месеца го подарих на жената, тя определено се зарадва много. Телефона е супер за парите си :) и определено доста ми допадна, но за мен по-късно и по-хубав ще има :P .

Първоначално се чудех какви са предпочитаните файлове за плейване на такъв телефон, но в телефона си имаше няколко оригинални клипчета. Изтеглих си едно и видях с какви аудио и видео кодеци е направен.

ffmpeg -i Hints\ and\ Tips\ 1\ -\ Music\ Download.mp4
FFmpeg version SVN-r16916, Copyright (c) 2000-2009 Fabrice Bellard, et al.
configuration: –prefix=/usr –libdir=/usr/lib64 –shlibdir=/usr/lib64 –mandir=/usr/share/man –enable-static –enable-shared –cc=x86_64-pc-linux-gnu-gcc –disable-debug –disable-optimizations –enable-libfaac –enable-libmp3lame –enable-libvorbis –enable-libtheora –enable-libx264 –enable-libxvid –enable-libdc1394 –enable-x11grab –enable-libfaad –disable-ssse3 –disable-altivec –disable-mmx2 –disable-amd3dnow –cpu=nocona –disable-vhook –enable-gpl –enable-postproc –enable-avfilter –enable-avfilter-lavf –enable-swscale –disable-stripping
libavutil 49.14. 0 / 49.14. 0
libavcodec 52.11. 0 / 52.11. 0
libavformat 52.25. 0 / 52.25. 0
libavdevice 52. 1. 0 / 52. 1. 0
libavfilter 0. 3. 0 / 0. 3. 0
libswscale 0. 6. 1 / 0. 6. 1
libpostproc 51. 2. 0 / 51. 2. 0
built on Apr 2 2009 10:41:11, gcc: 4.1.2 (Gentoo 4.1.2 p1.1)

Seems stream 1 codec frame rate differs from container frame rate: 1000.00 (1000/1) -> 12.00 (12/1)
Input #0, mov,mp4,m4a,3gp,3g2,mj2, from ‘Hints and Tips 1 – Music Download.mp4′:
Duration: 00:01:46.02, start: 0.000000, bitrate: 921 kb/s
Stream #0.0(eng): Audio: aac, 44100 Hz, stereo, s16
Stream #0.1(eng): Video: mpeg4, yuv420p, 640×360 [PAR 1:1 DAR 16:9], 12.00 tb(r)
At least one output file must be specified

По-горе се вижда че телефона работи отлично с:

Stream #0.0(eng): Audio: aac, 44100 Hz, stereo, s16
Stream #0.1(eng): Video: mpeg4, yuv420p, 640×360 [PAR 1:1 DAR 16:9], 12.00 tb(r)

Файловете които трябваше да конвертирам бяха със следните кодеци:
(continue reading…)

въведете коментар прочетете повече...

МОТОСЪБОР – 11.07.2009 Козлодуй

by on юли.16, 2009, under Разни, Спорт

Ето и малко видеоматериал от прочутото събитие за втора поредна година в Козлодуй! За съжаление тази година нямаше стартове, ноооо…… бирата и скарата бяха в изобилие!
Download
Стънт-а беше на средно ниво, за щастие – привидно лошото време се смили над всички ни и след 15:00 до към 18:00 времето беше хубаво и станахме свидетели на УНИКАЛНИ: пиене на бира, бутане на кег с мотор и т.н и т.н.
Download
Наложи се всички да се преместим за да гледаме стънт-а, тъй като първоначално замисленото трасе все още беше мокро, въпреки усилията са изсушаване на асфалта ;)
Очаквайте снимки и клипове от МОТОСЪБОР ВРАЦА 17-18-19. 07.2009г САМО НА SHARCOM.ORG – ВАШИЯТ ИНТЕРНЕТ ДОСТАВЧИК!!!
Download
Автор: Иван Козарев

въведете коментар прочетете повече...

Нещто не намирате ли?

Потърси в блога ми:

Моля Ви не прекалявайте с информацията!