Ceci & Tati

Archive for октомври, 2009

40 години град Козлодуй със специалното участие на Райна и Константин – HD

by on окт.13, 2009, under Майтапи, Разни, Спорт

Get the Flash Player to see this content.

Get the Flash Player to see this content.

Get the Flash Player to see this content.

(continue reading…)

въведете коментар прочетете повече...

Трифон зарезан 2009, вилата на АЕР гр.Козлодуй – HD

by on окт.13, 2009, under Майтапи, Разни, Спорт

Да покажем малко циганийка сега :).

Get the Flash Player to see this content.

Stream #0.0: Video: flv, yuv420p, 1280×720 [PAR 1:1 DAR 16:9], q=2-31, 2800 kb/s, 90k tbn, 30 tbc
Stream #0.1: Audio: libmp3lame, 22050 Hz, stereo, s16, 0 kb/s

въведете коментар прочетете повече...

8 март 2009 (снимано на 6 март) – ОДЗ Звънче гр.Козлодуй – 1 група – HD

by on окт.13, 2009, under Семейство

Да са ни живи и здрави и повечко да ни слушат :) .

Get the Flash Player to see this content.

Най-красивите деца :).
Get the Flash Player to see this content.

(continue reading…)

въведете коментар прочетете повече...

Нещто не намирате ли?

Потърси в блога ми:

Моля Ви не прекалявайте с информацията!