Ceci & Tati

Трифон зарезан 2009, вилата на АЕР гр.Козлодуй – HD

от на окт.13, 2009, категории Майтапи, Разни, Спорт

Да покажем малко циганийка сега :).

Get the Flash Player to see this content.

Stream #0.0: Video: flv, yuv420p, 1280×720 [PAR 1:1 DAR 16:9], q=2-31, 2800 kb/s, 90k tbn, 30 tbc
Stream #0.1: Audio: libmp3lame, 22050 Hz, stereo, s16, 0 kb/s


Вашият коментар

*
За да докажете че не сте бот, въведете този код
Anti-Spam Image

Нещто не намирате ли?

Потърси в блога ми:

Моля Ви не прекалявайте с информацията!