Ceci & Tati

Спорт

Трифон зарезан 2009, вилата на АЕР гр.Козлодуй – HD

by on окт..13, 2009, under Майтапи, Разни, Спорт

Да покажем малко циганийка сега :).

Get the Flash Player to see this content.

Stream #0.0: Video: flv, yuv420p, 1280×720 [PAR 1:1 DAR 16:9], q=2-31, 2800 kb/s, 90k tbn, 30 tbc
Stream #0.1: Audio: libmp3lame, 22050 Hz, stereo, s16, 0 kb/s

въведете коментар прочетете повече...

МОТОСЪБОР – 11.07.2009 Козлодуй

by on юли.16, 2009, under Разни, Спорт

Ето и малко видеоматериал от прочутото събитие за втора поредна година в Козлодуй! За съжаление тази година нямаше стартове, ноооо…… бирата и скарата бяха в изобилие!
Download
Стънт-а беше на средно ниво, за щастие – привидно лошото време се смили над всички ни и след 15:00 до към 18:00 времето беше хубаво и станахме свидетели на УНИКАЛНИ: пиене на бира, бутане на кег с мотор и т.н и т.н.
Download
Наложи се всички да се преместим за да гледаме стънт-а, тъй като първоначално замисленото трасе все още беше мокро, въпреки усилията са изсушаване на асфалта 😉
Очаквайте снимки и клипове от МОТОСЪБОР ВРАЦА 17-18-19. 07.2009г САМО НА SHARCOM.ORG – ВАШИЯТ ИНТЕРНЕТ ДОСТАВЧИК!!!
Download
Автор: Иван Козарев

въведете коментар прочетете повече...

Тенис турнир – „Първа Aтомна“ гр.Козлодуй – 27.07.2008

by on юли.27, 2008, under Спорт

Download

Който може си го може, само това мога да кажа 🙂 . Браво Ице да си жив и здрав, и все така да мачкаш наред 🙂 .

Със специалното съдействие на http://www.sharcom.org интернет доставчик – гр.Козлодуй

въведете коментар прочетете повече...


Федерер спечели „Мастърс“ турнира в Шанхай

by on ное..19, 2007, under Спорт

Федерер спечели „Мастърс“ турнира в Шанхай

13276.jpg

Роджър Федерер спечели последния за годината турнир от сериите „Мастърс”, който се проведе в Шанхай, Китай. Световният номер едно в тениса се наложи категорично с 3:0 (6:3, 6:2, 6:3) сета над испанеца Давид Ферер и с това си спечели четвърта титла от финалите в сериите “Мастърс”.

Очакванията, че финала ще бъде равностоен и оспорван не се оправдаха. Причината бе, че Роджър Федерер игра на много високо ниво и бе с класа над своя съперник. Швейцарецът владееше изцяло положението в първия сет, записа серия от 10 поредни точки и това доведе до първия пробив в мача и 3:1. Отличната игра на Федерер донесе нови два гейма в актива му и малко по-късно той затвори сета.

Във втория сет Давид Ферер заигра по-скопойно и това му позволи да се противопостави по-успешно на Федерер. Играта бе равностойна до седмия гейм, когато Ферер направи три елементарни грешки и допусна пробив. Следващите два гейма бяха спечелени от Федерер, което сложи точка на спора във втората част.

В началото на третия сет Давид Ферер пропусна три възможности за пробив и това окончателно сложи край на надеждите му. Швейцарецът продължи с блестящите си отигравания и не се отпусна, въпреки че имаше солиден аванс. Той осъществи пробив за 3:1 и нов за крайното в сета 6:2.

С успеха в Шанхай Федерер се доближи до Илие Настасе, който държи рекорда с победите си във финалните турнири – 5, докато Федерер вече има 4 титли от 5 участия и е близо до поредния рекорд, който може да подобри. Освен това швейцарецът си спечели 1,2 милиона долара от наградния фонд на турнира, което ще направи печалбите му за този сезон над 8,6 милиона долара. Единствения турнир, който най-добрият тенисист в света не можа да спечели тази година е „Ролан Гарос”, където Рафаел Надал е непобедим.

въведете коментар прочетете повече...

Нещто не намирате ли?

Потърси в блога ми:

Моля Ви не прекалявайте с информацията!